h33t
login or create account hot torrents members staff forum
Bookmark and Share Wichry namiętności - Legends of the Fall 1994 [mini-HD 720p AAC BluRayx264-LEON 345] [Lektor PL]
Direct Download
Direct Download
No client needed
Torrent File
Torrent File
Magnet Link
Magnet Link
 
Fast search in HD Movies category:   

Wichry namiętności - Legends of the Fall *1994*[mini-HD.720p.AAC.BluRay.x264-LEON 345] [Lektor PL]
==============================================

http://www.imdb.com/title/tt0110322/



produkcja: USA
gatunek: Melodramat
data premiery: 1995-05-05 (Polska) , 1994-12-16 (Świat)
reżyseria Edward Zwick
scenariusz Susan Shilliday, William D. Wittliff,
zdjęcia John Toll
muzyka James Horner
na podstawie: powieści Jima Harrisona
Obsada: Brad Pitt, Anthony Hopkins, Aidan Quinn

Pułkownik William Ludlow (Anthony Hopkins) żyje na rancho na zapomnianej przez ludzi ziemi u podnóża Gór Montana, gdzie wychowuje swych trzech synów z dala od okrutnych i krwawych wojen z Indianami. Alfred (Aidan Quinn) najstarszy z nich, jest odpowiedzialny i pełen dystansu; Samuel (Henry Thomas) ukochany beniaminek jest wrażliwym idealistą, a średni - Tristan (Brad Pitt) to duch niespokojny i nieposkromiony. W tym męskim świecie pojawia się Susannah Finncannon (Julia Ormond), kobieta piękna i inteligentna, która rozpalając w braciach pożądanie i ducha rywalizacji, zmienia na zawsze ich życiowe losy.

General

Format : MPEG-4
Format profile : Base Media
Codec ID : isom
File size : 2.50 GiB
Duration : 2h 12mn
Overall bit rate mode : Variable
Overall bit rate : 2 694 Kbps
Movie name : LEGENDS_OF_THE_FALL_1994 PL 720p(Leon 345)
Encoded date : UTC 2014-03-06 15:00:30
Tagged date : UTC 2014-03-06 15:03:52


Video
ID : 1
Format : AVC
Format/Info : Advanced Video Codec
Format profile : High@L4.1
Format settings, CABAC : Yes
Format settings, ReFrames : 4 frames
Codec ID : avc1
Codec ID/Info : Advanced Video Coding
Duration : 2h 12mn
Bit rate : 2 500 Kbps
Maximum bit rate : 19.2 Mbps
Width : 1 280 pixels
Height : 694 pixels
Display aspect ratio : 1.85:1
Frame rate mode : Constant
Frame rate : 23.976 fps
Color space : YUV
Chroma subsampling : 4:2:0
Bit depth : 8 bits
Scan type : Progressive
Bits/(Pixel*Frame) : 0.117
Stream size : 2.30 GiB (92%)
Title : Rip by Leon 345
Writing library : x264 core 128 r2216
Language : English
Encoded date : UTC 2014-03-06 15:00:30
Tagged date : UTC 2014-03-06 15:02:00

Audio
ID : 2
Format : AAC
Format/Info : Advanced Audio Codec
Format profile : HE-AAC / LC
Codec ID : 40
Duration : 2h 12mn
Bit rate mode : Variable
Bit rate : 214 Kbps
Maximum bit rate : 255 Kbps
Channel(s) : 6 channels
Channel positions : Front: L C R, Side: L R, LFE
Sampling rate : 48.0 KHz / 24.0 KHz
Compression mode : Lossy
Stream size : 203 MiB (8%)
Title : AAC 5.1 Lektor PL
Language : Polish
Encoded date : UTC 2014-03-06 15:01:57
Tagged date : UTC 2014-03-06 15:02:00

Source [thx]:
A/V-Legends of the Fall (1994) Blu-ray CEE 1080p AVC DD5.1
Category:HD Movies
Size:2.50 GB
Click to see files:
3 files
Added:07/03/2014
Uploader:Leon345
Downloaded:315 times
Info Hash:662d6679f8220d8e8ef0d9509b638f27ed11b4fd
Tracker listSeedsLeechersCompleteLast update
http://tracker.torrenty.org:6969/announceel42131523/10/2014 17:16:07


No comments...


Back
Visit our friends torrentz - psychocydd - isohunt - torrentfreak - freakbits



Copyright Policy - Privacy Policy