h33t
login or create account hot torrents members staff forum
Bookmark and Share The Hobbit The Desolation of Smaug (2013) DVDSCR XviD-MAXSPEED
Direct Download
Direct Download
No client needed
Torrent File
Torrent File
Magnet Link
Magnet Link
 
Fast search in Movies category:   



Screens:






ScreenCaps:




Code
The Hobbit The Desolation of Smaug (2013) DVDSCR XviD-MAXSPEED
Format                                   : AVI
Format/Info                              : Audio Video Interleave
Format profile                           : OpenDML
Format settings                          : rec
File size                                : 1.91 GiB
Duration                                 : 2h 41mn
Overall bit rate                         : 1 697 Kbps
Writing application                      : VirtualDubMod 1.5.10.2 (build 2542/release)
Writing library                          : VirtualDubMod build 2542/release
Original source form                     : MAX TORRENTZ
Copyright                                : SIGISMUNT

Video
ID                                       : 0
Format                                   : MPEG-4 Visual
Format profile                           : Advanced Simple@L5
Format settings, BVOP                    : 2
Format settings, QPel                    : Yes
Format settings, GMC                     : No warppoints
Format settings, Matrix                  : Default (H.263)
Muxing mode                              : Packed bitstream
Codec ID                                 : XVID
Codec ID/Hint                            : XviD
Duration                                 : 2h 41mn
Bit rate                                 : 1 499 Kbps
Width                                    : 636 pixels
Height                                   : 264 pixels
Display aspect ratio                     : 2.40:1
Frame rate                               : 29.970 fps
Color space                              : YUV
Chroma subsampling                       : 4:2:0
Bit depth                                : 8 bits
Scan type                                : Progressive
Compression mode                         : Lossy
Bits/(Pixel*Frame)                       : 0.298
Stream size                              : 1.69 GiB (88%)
Writing library                          : XviD 1.2.1 (UTC 2008-12-04)

Audio
ID                                       : 1
Format                                   : AC-3
Format/Info                              : Audio Coding 3
Mode extension                           : CM (complete main)
Format settings, Endianness              : Big
Codec ID                                 : 2000
Duration                                 : 2h 41mn
Bit rate mode                            : Constant
Bit rate                                 : 192 Kbps
Channel(s)                               : 2 channels
Channel positions                        : Front: L R
Sampling rate                            : 48.0 KHz
Bit depth                                : 16 bits
Compression mode                         : Lossy
Stream size                              : 221 MiB (11%)
Alignment                                : Aligned on interleaves
Interleave, duration                     : 64 ms (1.92 video frames)
Interleave, preload duration             : 192 ms

Source: Mother Russia-medium a/v quality,english good synced audio,
english hardcoded subtitles for elf/orc/etc language,sample included
This torrent is not seedbox supported,please seed it to the MAX

Uploader: Download sample and see if you like quality if not wait for blurayrip
in about 3 months, Happy Holidays for another year of sharing, thanks for downloading

Note: If you have something to offer as early releases,seedboxes,
contact us on  http://torentz.3xforum.ro or  http://torentz.tk

How To Get Your MAXSPEED (uTorrent)

Torrent Client - Preferences - Bandwidth - Number of connections - Set aprox. 500 for each
Torrent Client - Preferences - BiTorrent - Protocol Encryption - Forced
Bandwidth Allocation - High (Set download/upload limit - Unlimited)
Stop Other Active Torrents - Start downloading and wait for connections.
Enjoy and Seed for at least 1:1 ratio. Don't forget to say thanks/leave reviews.
If screens/Caps image host is dead google search "release name""screens" or "sample".
Greets to all actual/future p2p/scene QUALITY groups and affiliate websites.
Don't trust IMDb robot or bad ratings,always watch some trailers first.
Ignore stupid comments/fake/mislabeled/no-DVDrips/CAM/TS/RAR uploads.
Please spread this release/torrent to your friends/forums/etc.
If you need translation subs visit some subtitles sites.
Report if you see online streaming or other spam links.
Recommended movie player VLC PLAYER.

http://www.torentz.3xforum.ro/post/3315/1/The_Hobbit_The_Desolation_of_Smaug_2013_DVDSCR_XviD-MAXSPEED/
Category:Movies
Size:1.91 GB
Click to see files:
8 files
Added:28/12/2013
Uploader:extremezone
Downloaded:44 times
Info Hash:670b10e3842dfe57bedbd0653b09f0548034cbbb
Tracker listSeedsLeechersCompleteLast update
http://elitezones.ro/announce.php304431/10/2014 19:01:02
http://www.elitezones.ro/announce.php104431/10/2014 18:52:01


No comments...


Back
Visit our friends torrentz - psychocydd - isohunt - torrentfreak - freakbits



Copyright Policy - Privacy Policy