h33t
login or create account hot torrents members staff forum
Bookmark and Share Leenuh Rae - Black Cock Chasers
Direct Download
Direct Download
No client needed
Torrent File
Torrent File
Magnet Link
Magnet Link
 
Fast search in XXX category:   

Leenuh Rae - Black Cock Chasers

Screen:
http://amateurfreak.org/share-09A4_5225FB84.html
http://amateurfreak.org/share-579F_5225FB84.html
http://amateurfreak.org/share-5BED_5225FB84.html

File Size: 304 MB | Resolution: 640x360 | Duration: 24:47 | Format: .avi

Format                                   : AVI
Format/Info                              : Audio Video Interleave
File size                                : 305 MiB
Duration                                 : 24mn 47s
Overall bit rate                         : 1 718 Kbps
Writing application                      : Lavf52.39.1

Video
ID                                       : 0
Format                                   : AVC
Format/Info                              : Advanced Video Codec
Format profile                           : Baseline@L5.1
Format settings, CABAC                   : No
Format settings, ReFrames                : 1 frame
Format settings, GOP                     : M=1, N=12
Codec ID                                 : H264
Duration                                 : 24mn 47s
Bit rate                                 : 1 615 Kbps
Width                                    : 640 pixels
Height                                   : 360 pixels
Display aspect ratio                     : 16:9
Frame rate                               : 30.000 fps
Color space                              : YUV
Chroma subsampling                       : 4:2:0
Bit depth                                : 8 bits
Scan type                                : Progressive
Bits/(Pixel*Frame)                       : 0.234
Stream size                              : 291 MiB (95%)
Writing library                          : x264 core 57
Encoding settings                        : cabac=0 / ref=1 / deblock=0:0:0 / analyse=0x1:0 / me=dia / subme=7 / brdo=0 / mixed_ref=0 / me_range=4 / chroma_me=0 / trellis=0 / 8x8dct=0 / cqm=0 / deadzone=21,11 / chroma_qp_offset=0 / threads=1 / nr=0 / decimate=1 / mbaff=0 / bframes=0 / keyint=12 / keyint_min=7 / scenecut=0 / rc=abr / bitrate=1615 / ratetol=2.5 / rceq='tex^qComp' / qcomp=0.50 / qpmin=2 / qpmax=31 / qpstep=3 / ip_ratio=1.25

Audio
ID                                       : 1
Format                                   : MPEG Audio
Format version                           : Version 1
Format profile                           : Layer 3
Mode                                     : Joint stereo
Mode extension                           : MS Stereo
Codec ID                                 : 55
Codec ID/Hint                            : MP3
Duration                                 : 24mn 47s
Bit rate mode                            : Constant
Bit rate                                 : 64.0 Kbps
Channel(s)                               : 2 channels
Sampling rate                            : 48.0 KHz
Compression mode                         : Lossy
Stream size                              : 11.3 MiB (4%)
Alignment                                : Aligned on interleaves
Interleave, duration                     : 24 ms (0.72 video frame)
Interleave, preload duration             : 24 ms
Writing library                          : LAME3.96.1

Screenshot:

Category:XXX
Size:304.65 MB
Click to see files:
1 file
Added:03/09/2013
Uploader:spartakusx
Downloaded:0 times
Info Hash:78f805dffb2141464bbac2a64922075a301f1691
Sorry we do not have stats. New torrent stats display within a few minutes. Members will see a button below to pm the original uploader for a reseed of an old torrent.


No comments...


Back
Visit our friends torrentz - psychocydd - isohunt - torrentfreak - freakbits



Copyright Policy - Privacy Policy