h33t
login or create account hot torrents members staff forum
Bookmark and Share Details for Steely Dan - In Concert 2000 (2008)
Direct Download
Direct Download
No client needed
Torrent File
Torrent File
Magnet Link
Magnet Link
 
Fast search in Music Video category:   






Original Title: Steely Dan - In Concert 2000 (200
Nation: USA
Year: 2002
Genre: pop/rock
FSP: 29,970
Format: DVD5
Lenght: 75
Dimension: 3,29 Gb
Video Format: NYSC 16:9


Recorded Live January 2000, New York City.
The act that defined an era in sophisticated pop, Steely Dan, in a rare, intimate concert appearance from the year 2000.
Walter Becker, Donald Fagen, and their tight, sharp ensemble of advanced players and smooth backup singers have not lost a step - if anything, these renditions of Steely Dan hits, with their their tasteful licks, jazzy harmonies, funky grooves, and compelling and mysterious lirics, are even fresher and cooler than they were on record.
And the hits are certainly here: "Green Earrings", "Cousin Dupree", "Josie", "Pretzel Logic", and many more. An ear-opening evening of great music from one of the most tasteful, intelligent, and overwhelmingly popular bands of our time.



01. Green Earrings
02. Cousin Dupree
03. Bad Sneakers
04. Janie Runaway
05. Josie
06. FM
07. Gaslighting Abbie
08. Black Friday
09. Babylon Sisters
10. Kid Charlemagne
11. Jack Of Speed
12. Peg
13. Wath A Shame About Me
14. Pretzel Logic

All compositions by Walter Becker and Donald Fagen.





Code
General
Complete name : F:\download\STEELY_DAN\stiliden.mjgftry..lkjhgyqadscgf..kj\VIDEO_TS\VTS_02_1.VOB
Format : MPEG-PS
File size : 1 024 MiB
Duration : 19mn 37s
Overall bit rate mode : Variable
Overall bit rate : 7 292 Kbps

Video
ID : 224 (0xE0)
Format : MPEG Video
Format version : Version 2
Format profile : Main@Main
Format settings, BVOP : Yes
Format settings, Matrix : Custom
Format settings, GOP : M=3, N=15
Duration : 19mn 37s
Bit rate mode : Variable
Bit rate : 4 998 Kbps
Maximum bit rate : 5 000 Kbps
Width : 720 pixels
Height : 480 pixels
Display aspect ratio : 16:9
Frame rate : 29.970 fps
Standard : NTSC
Color space : YUV
Chroma subsampling : 4:2:0
Bit depth : 8 bits
Scan type : Interlaced
Scan order : Top Field First
Compression mode : Lossy
Bits/(Pixel*Frame) : 0.483
Stream size : 702 MiB (69%)

Audio #1
ID : 189 (0xBD)-128 (0x80)
Format : AC-3
Format/Info : Audio Coding 3
Mode extension : CM (complete main)
Muxing mode : DVD-Video
Duration : 19mn 37s
Bit rate mode : Constant
Bit rate : 192 Kbps
Channel(s) : 2 channels
Channel positions : Front: L R
Sampling rate : 48.0 KHz
Bit depth : 16 bits
Compression mode : Lossy
Delay relative to video : -66ms
Stream size : 27.0 MiB (3%)

Audio #2
ID : 189 (0xBD)-129 (0x81)
Format : AC-3
Format/Info : Audio Coding 3
Mode extension : CM (complete main)
Muxing mode : DVD-Video
Duration : 19mn 37s
Bit rate mode : Constant
Bit rate : 448 Kbps
Channel(s) : 6 channels
Channel positions : Front: L C R, Side: L R, LFE
Sampling rate : 48.0 KHz
Bit depth : 16 bits
Compression mode : Lossy
Delay relative to video : -66ms
Stream size : 62.9 MiB (6%)

Audio #3
ID : 189 (0xBD)-138 (0x8A)
Format : DTS
Format/Info : Digital Theater Systems
Muxing mode : DVD-Video
Duration : 19mn 37s
Bit rate mode : Constant
Bit rate : 1 510 Kbps
Channel(s) : 6 channels
Channel positions : Front: L C R, Side: L R, LFE
Sampling rate : 48.0 KHz
Bit depth : 24 bits
Compression mode : Lossy
Delay relative to video : -66ms
Stream size : 212 MiB (21%)

Category:Music Video
Size:3.89 GB
Click to see files:
19 files
Added:20/02/2012
Uploader:jobam
Downloaded:0 times
Info Hash:652039fe0fffa273d04b55e5f56b3c056fd1089d
Sorry we do not have stats. New torrent stats display within a few minutes. Members will see a button below to pm the original uploader for a reseed of an old torrent.


No comments...


Back
Visit our friends torrentz - psychocydd - isohunt - torrentfreak - freakbits



Copyright Policy - Privacy Policy