h33t
login or create account hot torrents members staff forum
Bookmark and Share Eminem - Space Bound - H.263 - HQ - Mobile Mp4 ~~~AbhinavRocks
Direct Download
Direct Download
No client needed
Torrent File
Torrent File
Magnet Link
Magnet Link
 
Fast search in Music Video category:   




Info :-
Format                           : MPEG-4
File size                        : 16.0 MiB
Duration                         : 4mn 24s
Overall bit rate                 : 507 Kbps


Video Info :-
ID                               : 1
Format                           : MPEG-4 Visual
Format settings, Matrix          : Default (H.263)
Codec ID                         : 20
Duration                         : 4mn 24s
Bit rate mode                    : Variable
Bit rate                         : 379 Kbps
Maximum bit rate                 : 1 061 Kbps
Width                            : 320 pixels
Height                           : 240 pixels
Display aspect ratio             : 4:3
Original display aspect ratio    : 2.35:1
Frame rate mode                  : Constant
Frame rate                       : 30.000 fps
Color space                      : YUV
Chroma subsampling               : 4:2:0
Bit depth                        : 8 bits
Scan type                        : Progressive
Compression mode                 : Lossy
Bits/(Pixel*Frame)               : 0.165
Stream size                      : 11.9 MiB (75%)


Audio Info :-
ID                               : 2
Format                           : AAC
Format/Info                      : Advanced Audio Codec
Format profile                   : LC
Codec ID                         : 40
Duration                         : 4mn 24s
Bit rate mode                    : Variable
Bit rate                         : 126 Kbps
Maximum bit rate                 : 154 Kbps
Channel(s)                       : 2 channels
Channel positions                : Front: L R
Sampling rate                    : 44.1 KHz
Compression mode                 : Lossy
Stream size                      : 3.96 MiB (25%)



Category:Music Video
Size:16.06 MB
Click to see files:
7 files
Added:21/12/2011
Uploader:AbhinavRocks
Downloaded:0 times
Info Hash:87324cdfbd548590cf387c8b15dc5d0f668f48fe
Sorry we do not have stats. New torrent stats display within a few minutes. Members will see a button below to pm the original uploader for a reseed of an old torrent.


No comments...


Back
Visit our friends torrentz - psychocydd - isohunt - torrentfreak - freakbits



Copyright Policy - Privacy Policy