h33t
login or create account hot torrents members staff forum
Bookmark and Share The Hunger Games Catching Fire 2013 IMAX Edition BRRip XviD MP3-RARBG
Direct Download
Direct Download
No client needed
Torrent File
Torrent File
Magnet Link
Magnet Link
 
Fast search in category:   

The Hunger Games Catching Fire 2013 IMAX Edition BRRip XviD MP3-RARBG

image

Title: The Hunger Games: Catching Fire (2013)
IMDB Rating: 8.1/10
Genres: Action , Adventure , Thriller
Actors: Jennifer Lawrence , Liam Hemsworth , Jack Quaid , Taylor St. Clair , Sandra Ellis Lafferty , Woody Harrelson , Josh Hutcherson , Paula Malcomson , Willow Shields , Donald Sutherland , Elizabeth Banks , Bruce Bundy , Nelson Ascencio , Lenny Kravitz , Stanley Tucci
Runtime: 146
Year: 2013
Plot:
A year after winning the 74th Hunger Games| Katniss Everdeen and her partner| Peeta Mellark must go on what is known as the Victor's Tour wherein they visit all the
districts. But before leaving| Katniss is visited by President Snow who fears that Katniss defied him a year ago during the games when she chose to die with Peta.
With both Katniss and Peeta declared the winners| it is fueling a possible uprising. He tells Katniss that while on tour she better try to make sure that she puts
out the flames or else everyone she cares about will be in danger. But unfortunately she fails to do that. So Snow decides to enact what is known as the Quarter
Quell| the right to make a change to the Hunger Games| which he is allowed to do every 25 years. He decides to hold an edition of the Hunger Games wherein previous
winners will compete again. Their mentor Haymitch thinks their best chance to survive is form an alliance with some of the others. They decide to align themselves
with Finnick and his...

The.Hunger.Games.Catching.Fire.2013.IMAX.Edition.BRRip.XviD.MP3-RARBG

http://imdb.com/title/tt1951264/


image

Info:
Format : AVI
Format/Info : Audio Video Interleave
Format profile : OpenDML
File size : 1.40 GiB
Duration : 2h 26mn
Overall bit rate : 1 370 Kbps
Movie name : Downloaded from RARBG.COM
Writing application : Lavf55.22.103
Comment : Downloaded from RARBG.COM

Video
ID : 0
Format : xvid
Codec ID : xvid
Duration : 2h 26mn
Bit rate : 1 099 Kbps
Width : 720 pixels
Height : 405 pixels
Display aspect ratio : 16:9
Frame rate : 23.976 fps
Bits/(Pixel*Frame) : 0.157
Stream size : 1.12 GiB (80%)

Audio
ID : 1
Format : MPEG Audio
Format version : Version 1
Format profile : Layer 3
Mode : Joint stereo
Codec ID : 55
Codec ID/Hint : MP3
Duration : 2h 26mn
Bit rate mode : Constant
Bit rate : 256 Kbps
Channel(s) : 2 channels
Sampling rate : 48.0 KHz
Compression mode : Lossy
Stream size : 268 MiB (19%)
Alignment : Aligned on interleaves
Interleave, duration : 24 ms (0.58 video frame)
Writing library : LAME3.99.5


Screens:
image
image
image
image
image
image


Notes:
Greetz to everyone :)
Category:Movies
Size:1.40 GB
Added:19/01/2014
Uploader:Unverified. You can upload this torrent to verify it and claim it for your own collection.
Info Hash:F7E9B2E50EB437EA1CCC45B89423BDE3AC32B165
Sorry we do not have peer stats. New torrent stats display within a few minutes. If it is an old torrent then it is possible it is alive on DHT even if no tracker is shown.


No comments...
Visit our friends torrentz - psychocydd - isohunt - torrentfreak - freakbits



Copyright Policy - Privacy Policy